Announcement

Collapse
No announcement yet.

F60 cheap looking camera with less acessories under $20.

Collapse
X
 
  • Filter
  • Time
  • Show
Clear All
new posts

  • F60 cheap looking camera with less acessories under $20.

    I need another time lapse at faster than 1 frame per second, My old ($38) F60 cloan works great. So I found on Ebay something similar described.
    After seeing a youtube about the camera and its menus looked the same, Orange X, I bought it.
    The camera comes with less accessories, but hence the price is less.
    I will update this post over time. ^^^^ It has the Better waterproof case with Latch.
    Click image for larger version  Name:	s-l1600 (2).jpg Views:	1 Size:	41.1 KB ID:	10207Click image for larger version  Name:	s-l1600 (1).jpg Views:	1 Size:	124.5 KB ID:	10208 Click image for larger version  Name:	ClipboardAA.jpg Views:	1 Size:	126.9 KB ID:	10209
    Thats how their sales pictures look, very Cheaply written 4K ultra HD, I hope the reviews are correct that it is a good copy F60.
    2.7K First timelapse Vid:General Complete name : G:\video\20170103_022720A.mp4
    Format : MPEG-4
    Format profile : Base Media Codec ID : isom
    File size : 1.17 GiB Duration : 5mn 18s
    Overall bit rate : 31.5 Mbps
    Video ID : 1 Format : AVC
    Format/Info : Advanced Video Codec Format profile : [email protected]
    Format settings, CABAC : Yes Format settings, ReFrames : 1 frame
    Codec ID : avc1
    Codec ID/Info : Advanced Video Coding Duration : 5mn 18s Source duration : 5mn 18s
    Bit rate : 31.5 Mbps
    Width : 2 688 pixels
    Height : 1 520 pixels
    Display aspect ratio : 16:9 Frame rate : 30.000 fps
    Color space : YUV Chroma subsampling : 4:2:0 Bit depth : 8 bits
    Scan type : Progressive Bits/(Pixel*Frame) : 0.257
    Stream size : 1.17 GiB (100%) Source stream size : 1.17 GiB (100%)
    Language : English Color primaries : BT.601 PAL
    Transfer characteristics : BT.601 Matrix coefficients : BT.601
    Color range : Limited mdhd_Duration : 318463

    PHOTO info: Filename - 20180430_161458A.jpg Orientation - Top left DateTime - 2018:04:30 16:14:58
    Make - Qlippie
    Model - B-PRO5 Alpha Edition mk.II
    ExifOffset - 502 ImageDescription - This photo is taken with Brica B-PRO5 Alpha Edition mk.��
    ExposureTime - 1/3289 seconds FNumber - 2.60
    ISOSpeedRatings - 51
    ShutterSpeedValue - 1/4640 seconds
    BrightnessValue - 10.41 ExposureBiasValue - 0.00/0.00
    MeteringMode - Average Flash - Not fired FocalLength - 2.28 mm
    ExposureMode - Auto White Balance - Auto DigitalZoomRatio - 0.00/0.00 x
    FocalLengthIn35mmFilm - 18 mm Serial Number - 01000001 DateTimeOriginal - 2018:04:30 16:14:58
    DateTimeDigitized - 2018:04:30 16:14:58
    ExifImageWidth - 4608
    ExifImageHeight - 3456
    Thumbnail: - Compression - 6 (JPG) ImageWidth - 320 ImageLength - 240
    JpegIFOffset - 1044
    JpegIFByteCount - 10763

    Ugg, Watercolor look! O O but its at 16 MP settings. will work on others, My Original still is a great camera.
    * Using 128GB samsung formated with FAT32.

    4K: Format : MPEG-4 Format profile : Base Media Codec ID : isom
    File size : 44.4 MiB Duration : 22s 966ms Overall bit rate mode : Variable
    Overall bit rate : 16.2 Mbps
    Video ID : 1
    Format : AVC Format/Info : Advanced Video Codec Format profile : [email protected]
    Format settings, CABAC : Yes Format settings, ReFrames : 1 frame Codec ID : avc1
    Codec ID/Info : Advanced Video Coding Duration : 22s 966ms Source duration : 22s 933ms
    Bit rate : 15.8 Mbps
    Width : 3 840 pixels
    Height : 2 160 pixels
    Display aspect ratio : 16:9 Frame rate : 30.000 fps Color space : YUV Chroma subsampling : 4:2:0
    Bit depth : 8 bits Scan type : Progressive Bits/(Pixel*Frame) : 0.064
    Stream size : 43.3 MiB (98%) Source stream size : 43.3 MiB (98%)
    Language : English Color primaries : BT.601 PAL Transfer characteristics : BT.601 Matrix coefficients : BT.601
    Color range : Limited mdhd_Duration : 22966
    Audio ID : 2
    Format : AAC Format/Info : Advanced Audio Codec Format profile : LC Codec ID : 40
    Duration : 22s 966ms Source duration : 22s 400ms Bit rate mode : Variable Channel(s) : 1 channel
    Channel positions : Front: C
    Sampling rate : 8 000 Hz
    Compression mode : Lossy Source stream size : 46.8 KiB (0%)
    Language : English mdhd_Duration : 22966

    Last edited by Albert; 04-30-2018, 08:53 PM.

  • #2
    I guess you got a generic copy of a "B-PRO5 Alpha Edition mk II" http://www.brica.co.id/bpro5alpha2.html and it's very similar to a generic F60 from Gearbest https://www.gearbest.com/action-cameras/pp_650622.html

    Comment

    Working...
    X