Announcement

Collapse
No announcement yet.

hello

Collapse
X
 
  • Filter
  • Time
  • Show
Clear All
new posts

  • hello

    hello. please any idea what camera is this one???
    Last edited by bolo1972; 10-31-2017, 02:23 PM.

  • #2
    any help thanks

    Comment


    • petesimon
      petesimon commented
      Editing a comment
      not sure. but maybe it has the GeneralPlus (GP) chipset. please write a link to where you got it from, and please share unprocessed video file samples via cloud storage - dropbox, yandex-disk, google-drive but not on youtube.

  • #3
    https://www.ebay.com/itm/2-0-LCD-Dua...eiPd4G0Z9kFadg

    Comment


    • petesimon
      petesimon commented
      Editing a comment
      thanks.

      and video samples?

      and what is the name of the Wifi app you can use with cam?
      Last edited by petesimon; 11-01-2017, 12:51 AM.

  • #4
    the wifi app is DVRunning. thanks for your help pete

    Comment


    • petesimon
      petesimon commented
      Editing a comment
      okay. thanks. the electronics company of the app (not cam) seems to be Zhuhai Jie Technology Co., Ltd..

      also please share video sample files from the camera.

      here are some video sample files (mp4) from my Allwinner V3 camera - https://yadi.sk/d/djAT7SJpyS84R
      Last edited by petesimon; 11-02-2017, 12:20 AM.

  • #5
    this is the link for video. thank

    Comment


    • petesimon
      petesimon commented
      Editing a comment
      hm?
      there is no link to video. please click on your video file in google drive and click 'share' button there and copy/paste the share link from there to here.
      Code:
      this is the link for video. thank
      https://drive.google.com

  • #6
    sorryjeee https://drive.google.com/file/d/0B8k...ew?usp=sharing

    Comment


    • petesimon
      petesimon commented
      Editing a comment
      thanks. I see maybe a LADA car or is it a Volvo car?

      here is the video info for file REC00048.AVI . Notice that the file is AVI and the codec is MJPG (mjpeg). Usually very "cheap" cameras that have low power chipset such as GeneralPlus (GP) will make this kind of video.

      Code:
      General
      Complete name                  : C:\Users\acer\Videos\REC00048.AVI
      Format                         : AVI
      Format/Info                    : Audio Video Interleave
      File size                      : 24.9 MiB
      Duration                       : 14 s 834 ms
      Overall bit rate               : 14.1 Mb/s
      
      Video
      ID                             : 0
      Format                         : JPEG
      Codec ID                       : MJPG
      Duration                       : 14 s 700 ms
      Bit rate                       : 16.5 Mb/s
      Width                          : 1 280 pixels
      Height                         : 720 pixels
      Display aspect ratio           : 16:9
      Frame rate                     : 30.000 FPS
      Color space                    : YUV
      Chroma subsampling             : 4:2:0
      Bit depth                      : 8 bits
      Compression mode               : Lossy
      Bits/(Pixel*Frame)             : 0.595
      Stream size                    : 28.9 MiB
      
      Audio
      ID                             : 1
      Format                         : PCM
      Format settings, Endianness    : Little
      Format settings, Sign          : Signed
      Codec ID                       : 1
      Duration                       : 14 s 834 ms
      Bit rate mode                  : Constant
      Bit rate                       : 128 kb/s
      Channel(s)                     : 1 channel
      Sampling rate                  : 8 000 Hz
      Bit depth                      : 16 bits
      Stream size                    : 232 KiB (1%)
      Alignment                      : Aligned on interleaves
      Interleave, duration           : 507  ms (15.21 video frames)

    • nutsey
      nutsey commented
      Editing a comment
      The car is AZLK Moskvich-2140.

    • nutsey
      nutsey commented
      Editing a comment
      And the cam is not Allwinner

      So the topic is moved to misc stuff.

  • #7
    jjajaaja is a moska for sure jajajaj it cost me 35 jeje .to play with is good price .
    thank pete for your help .il be back with a allwiner soon...

    Comment

    Working...
    X